Results 1 to 4 of 4

Thread: .cue / .bin CD images

Hybrid View

  1. #1
    Advisor
    Join Date
    Apr 2002
    Posts
    858

    .cue / .bin CD images

    I have a couple of CD images of the .cue / .bin combo variety, the thing is, they're missing the .cue file! Are .cue files really complicated, or can I just use something along the lines of:
    Code:
    FILE "CD.BIN" BINARY
      TRACK 01 MODE1/2352
        FLAGS DCP
        INDEX 01 00:00:00
    replacing CD.BIN with the name of the .bin file? Should it be all capitals? are spaces just left as spaces or do they need comments? Any further info would be great.

  2. #2
    Mentor
    Join Date
    Jul 2001
    Posts
    1,666

    Re:.cue / .bin CD images

    I had a look at a couple of .cue files I have and all of them were pretty much like you have guessed, but none of them have flags. I'd just try it and see what happens.
    CP

  3. #3

    Re:.cue / .bin CD images

    Heres a cue file:
    Code:
    FILE "tdi-lotr2-cd1.bin" BINARY
      TRACK 01 MODE2/2352
        INDEX 01 00:00:00
      TRACK 02 MODE2/2352
        INDEX 01 00:06:00

  4. #4
    Advisor
    Join Date
    Apr 2002
    Posts
    858

    Re:.cue / .bin CD images

    okay cool, seems they don't have to be all cap's for .bin names in the file. Thanks for the help guys, I'll give it a whirl and see what happens.

Similar Threads

  1. Set of images
    By omidkamangar in forum Linux - General Topics
    Replies: 0
    Last Post: 04-14-2007, 03:43 PM
  2. ISO Images
    By omidkamangar in forum Linux - Software, Applications & Programming
    Replies: 2
    Last Post: 09-26-2006, 09:31 PM
  3. Images
    By CPU in forum Announcements and Suggestions
    Replies: 1
    Last Post: 10-16-2005, 07:00 AM
  4. Images are blurry
    By Slipknot99 in forum Windows - General Topics
    Replies: 15
    Last Post: 02-11-2005, 03:28 AM
  5. Cannot see GIF images on explorer.
    By Marik in forum Windows - General Topics
    Replies: 9
    Last Post: 01-26-2005, 10:18 AM

Bookmarks

Posting Permissions

  • You may not post new threads
  • You may not post replies
  • You may not post attachments
  • You may not edit your posts
  •